查看: 181|回復: 0
打印 上一主題 下一主題

[10bit.HDR] 生活多美好 Its.a.Wonderful.Life.1946.2160p.UHD.BluRay.X265.10bit.HDR.TrueHD.2.0-AViATOR 30.01GB

[復制鏈接]

 成長值: 6100

級別:資源管理組

注冊時間
2017-10-20
最后登錄
2020-7-12
聽眾
1
收聽
0
主題
97892
藍光幣
170288 枚
貢獻
21715 點
跳轉到指定樓層
樓主
發表于 2019-10-26 16:28:01 | 只看該作者 |只看大圖 回帖獎勵 |倒序瀏覽 |閱讀模式


譯  名 生活多美好 / Frank Capra's It's a Wonderful Life / 哀樂人生 / 美好人生 / 美好生活 / 風云人物
片  名 It's a Wonderful Life
年  代 1946
產  地 美國
類  別 劇情 / 愛情 / 奇幻
語  言 英語 / 法語
上映日期 1946-12-20
IMDb評分  8.6/10 from 362631 users
IMDb鏈接  http://www.imdb.com/title/tt0038650
豆瓣評分 9.2/10 from 47614 users
豆瓣鏈接 https://movie.douban.com/subject/1293749/
片  長 130 分鐘
導  演 弗蘭克·卡普拉 Frank Capra
編  劇 弗朗西絲·古德里奇 Frances Goodrich / 艾伯特·哈克特 Albert Hackett / 弗蘭克·卡普拉 Frank Capra / 喬·斯沃林 Jo Swerling / Philip Van Doren Stern / 邁克爾·威爾遜 Michael Wilson
主  演 詹姆斯·斯圖爾特 James Stewart
       唐娜·里德 Donna Reed
       萊昂納爾·巴里摩爾 Lionel Barrymore
       托馬斯·米切爾 Thomas Mitchell
       亨利·崔佛斯 Henry Travers
       比尤拉·邦蒂 Beulah Bondi
       弗蘭克·費倫 Frank Faylen
       沃德·邦德 Ward Bond
       格洛麗亞·格雷厄姆 Gloria Grahame
       H.B.沃納 H.B. Warner
       弗蘭克·艾伯森 Frank Albertson
       托德·卡恩茨 Todd Karns
       薩繆爾·S·辛茲 Samuel S. Hinds
       瑪麗特琳 Mary Treen
       Virginia Patton
       查爾斯·威廉姆斯 Charles Williams
       Sarah Edwards
       William Edmunds
       莉蓮·倫道夫 Lillian Randolph
       Argentina Brunetti
       Robert J. Anderson
       Ronnie Ralph
       Jeanine Ann Roose
       Georgie Nokes
       Sheldon Leonard
       Frank Hagney
       雷·沃克 Ray Walker
       查爾斯·萊恩 Charles Lane
       愛德華·基恩 Edward Keane
       Carol Coombs
       卡羅琳·格蘭姆斯 Karolyn Grimes
       Larry Simms
       Jimmy Hawkins
       簡·阿克 Jean Acker
       厄尼·亞當斯 Ernie Adams
       曼雅·安德烈 Monya Andre
       斯坦利·安德魯斯 Stanley Andrews
       Sam Ash
       Jack Bailey
       Brooks Benedict
       Joseph E. Bernard
       阿爾·布里奇 Al Bridge
       瑪麗安·卡爾 Marian Carr
       阿德里亞娜·卡塞洛蒂 Adriana Caselotti
       萊恩·錢德勒 Lane Chandler
       Michael Chapin
       Tom Chatterton
       Jack Cheatham
       Harry Cheshire
       Edward Clark
       Tom Coleman
       埃倫·科比 Ellen Corby
       Helen Dickson
       Dick Elliott
       Tom Fadden
       Frank Fenton
       埃迪·凡特思頓 Eddie Fetherston
       Sam Flint
       Dick Gordon
       Joseph Granby
       查爾斯·霍爾頓 Charles Halton
       Herbert Heywood
       Harry Holman
       Art Howard
       Bert Howard
       Arthur Stuart Hull
       John Indrisano
       艾迪·凱恩 Eddie Kane
       Carl Kent
       Milton Kibbee
       Effie Laird
       邁克·拉里 Mike Lally
       Harold Landon
       Meade 'Lux' Lewis
       Jack Lomas
       J·法瑞爾·麥克唐納 J. Farrell MacDonald
       Wilbur Mack
       Charles Meakin
       伯特·穆爾豪斯 Bert Moorhouse
       Evelyn Moriarty
       Philip Morris
       George Noisom
       弗蘭克·奧康納 Frank O'Connor


標  簽 美國 | 勵志 | 經典 | 美國電影 | 喜劇 | 1946 | 溫情 | 愛情

簡  介  

  喬治(詹姆斯?斯圖爾特 James Stewart 飾)在圣誕節前準備自殺,這時上帝傳來旨意,派天使拯救他,并讓他了解到自己一生的使命——拯救那些不幸的人。喬治小時候左耳有疾,在貝德福德鎮上的一家藥店幫工。他很機靈,深得老板器重,同時也很招女孩喜歡。某日,老板接到愛子死亡的電報,悲痛欲絕,配錯了藥,幸虧喬治才化險為夷。喬治從小嫉惡如仇,尤其看不慣富人專橫跋扈。長大后,喬治一表人材,準備去讀大妹。這時,他的父親去世了,他子承父業,協助叔父料理公司事務。然而公司經營狀況不佳,在董事會會議上面臨破產。如果公司破產,小鎮將會有很多家庭陷入困境。喬治力排眾議,說服了董事會,但是條件是他要擔任董事會秘書長。這與他的大妹夢相去甚遠。而且,此時他還陷入了對一個女孩的愛戀之中……

獲獎情況  

  第19屆奧斯卡金像獎(1947)
  最佳影片(提名)
  最佳導演(提名) 弗蘭克·卡普拉
  最佳男主角(提名) 詹姆斯·斯圖爾特
  最佳剪輯(提名) 威廉·霍恩貝克
  最佳錄音(提名) 約翰·奧爾堡

  第4屆金球獎(1947)
  電影類 最佳導演 弗蘭克·卡普拉
  1. Video
  2. ID                                       : 1
  3. Format                                   : HEVC
  4. Format/Info                              : High Efficiency Video Coding
  5. Format profile                           : Main [email protected]@High
  6. HDR format                               : SMPTE ST 2086, HDR10 compatible
  7. Codec ID                                 : V_MPEGH/ISO/HEVC
  8. Duration                                 : 2 h 10 min
  9. Bit rate                                 : 31.1 Mb/s
  10. Width                                    : 2 962 pixels
  11. Height                                   : 2 160 pixels
  12. Display aspect ratio                     : 1.371
  13. Frame rate mode                          : Constant
  14. Frame rate                               : 23.976 (24000/1001) FPS
  15. Color space                              : YUV
  16. Chroma subsampling                       : 4:2:0 (Type 2)
  17. Bit depth                                : 10 bits
  18. Bits/(Pixel*Frame)                       : 0.203
  19. Stream size                              : 28.4 GiB (95%)
  20. Writing library                          : x265 3.27fc1f6ef2b96:[Windows][GCC 6.3.0][64 bit] 10bit
  21. Encoding settings                        : cpuid=1111039 / frame-threads=4 / numa-pools=20 / wpp / no-pmode / no-pme / no-psnr / no-ssim / log-level=2 / input-csp=1 / input-res=2962x2160 / interlace=0 / total-frames=187791 / level-idc=51 / high-tier=1 / uhd-bd=0 / ref=4 / no-allow-non-conformance / repeat-headers / annexb / aud / hrd / info / hash=0 / no-temporal-layers / no-open-gop / min-keyint=1 / keyint=24 / gop-lookahead=0 / bframes=4 / b-adapt=2 / b-pyramid / bframe-bias=0 / rc-lookahead=25 / lookahead-slices=4 / scenecut=40 / radl=0 / no-splice / no-intra-refresh / ctu=64 / min-cu-size=8 / rect / no-amp / max-tu-size=32 / tu-inter-depth=1 / tu-intra-depth=1 / limit-tu=0 / rdoq-level=2 / dynamic-rd=0.00 / no-ssim-rd / signhide / no-tskip / nr-intra=0 / nr-inter=0 / no-constrained-intra / no-strong-intra-smoothing / max-merge=3 / limit-refs=3 / limit-modes / me=3 / subme=3 / merange=57 / temporal-mvp / no-frame-dup / no-hme / weightp / no-weightb / no-analyze-src-pics / deblock=-3:-3 / no-sao / no-sao-non-deblock / rd=4 / selective-sao=0 / no-early-skip / rskip / no-fast-intra / no-tskip-fast / no-cu-lossless / no-b-intra / no-splitrd-skip / rdpenalty=0 / psy-rd=2.00 / psy-rdoq=1.00 / no-rd-refine / no-lossless / cbqpoffs=0 / crqpoffs=0 / rc=crf / crf=19.5 / qcomp=0.60 / qpstep=4 / stats-write=0 / stats-read=0 / vbv-maxrate=160000 / vbv-bufsize=160000 / vbv-init=0.9 / crf-max=0.0 / crf-min=0.0 / ipratio=1.40 / pbratio=1.30 / aq-mode=1 / aq-strength=1.00 / cutree / zone-count=0 / no-strict-cbr / qg-size=32 / no-rc-grain / qpmax=69 / qpmin=0 / no-const-vbv / sar=1 / overscan=0 / videoformat=5 / range=0 / colorprim=9 / transfer=16 / colormatrix=9 / chromaloc=1 / chromaloc-top=2 / chromaloc-bottom=2 / display-window=0 / master-display=G(8500,39850)B(6550,2300)R(35400,14600)WP(15635,16450)L(10000000,1) / cll=0,0 / min-luma=0 / max-luma=1023 / log2-max-poc-lsb=8 / vui-timing-info / vui-hrd-info / slices=1 / no-opt-qp-pps / no-opt-ref-list-length-pps / no-multi-pass-opt-rps / scenecut-bias=0.05 / no-opt-cu-delta-qp / no-aq-motion / hdr / hdr-opt / no-dhdr10-opt / no-idr-recovery-sei / analysis-reuse-level=5 / scale-factor=0 / refine-intra=0 / refine-inter=0 / refine-mv=1 / refine-ctu-distortion=0 / no-limit-sao / ctu-info=0 / no-lowpass-dct / refine-analysis-type=0 / copy-pic=1 / max-ausize-factor=1.0 / no-dynamic-refine / no-single-sei / no-hevc-aq / no-svt / no-field / qp-adaptation-range=1.00
  22. Default                                  : Yes
  23. Forced                                   : No
  24. Color range                              : Limited
  25. Color primaries                          : BT.2020
  26. Transfer characteristics                 : PQ
  27. Matrix coefficients                      : BT.2020 non-constant
  28. Mastering display color primaries        : BT.2020
  29. Mastering display luminance              : min: 0.0001 cd/m2, max: 1000 cd/m2

  30. Audio #1
  31. ID                                       : 2
  32. Format                                   : MLP FBA
  33. Format/Info                              : Meridian Lossless Packing FBA
  34. Commercial name                          : Dolby TrueHD
  35. Codec ID                                 : A_TRUEHD
  36. Duration                                 : 2 h 10 min
  37. Bit rate mode                            : Variable
  38. Bit rate                                 : 677 kb/s
  39. Maximum bit rate                         : 1 080 kb/s
  40. Channel(s)                               : 2 channels
  41. Channel layout                           : L R
  42. Sampling rate                            : 48.0 kHz
  43. Frame rate                               : 1 200.000 FPS (40 SPF)
  44. Compression mode                         : Lossless
  45. Stream size                              : 632 MiB (2%)
  46. Language                                 : English
  47. Default                                  : Yes
  48. Forced                                   : No

  49. Audio #2
  50. ID                                       : 3
  51. Format                                   : AC-3
  52. Format/Info                              : Audio Coding 3
  53. Commercial name                          : Dolby Digital
  54. Codec ID                                 : A_AC3
  55. Duration                                 : 2 h 10 min
  56. Bit rate mode                            : Constant
  57. Bit rate                                 : 640 kb/s
  58. Channel(s)                               : 2 channels
  59. Channel layout                           : L R
  60. Sampling rate                            : 48.0 kHz
  61. Frame rate                               : 31.250 FPS (1536 SPF)
  62. Bit depth                                : 16 bits
  63. Compression mode                         : Lossy
  64. Stream size                              : 598 MiB (2%)
  65. Language                                 : English
  66. Service kind                             : Complete Main
  67. Default                                  : No
  68. Forced                                   : No

  69. Text #1
  70. ID                                       : 4
  71. Format                                   : PGS
  72. Muxing mode                              : zlib
  73. Codec ID                                 : S_HDMV/PGS
  74. Codec ID/Info                            : Picture based subtitle format used on BDs/HD-DVDs
  75. Duration                                 : 2 h 8 min
  76. Bit rate                                 : 55.2 kb/s
  77. Count of elements                        : 4694
  78. Stream size                              : 50.7 MiB (0%)
  79. Language                                 : English
  80. Default                                  : No
  81. Forced                                   : No

  82. Text #2
  83. ID                                       : 5
  84. Format                                   : PGS
  85. Muxing mode                              : zlib
  86. Codec ID                                 : S_HDMV/PGS
  87. Codec ID/Info                            : Picture based subtitle format used on BDs/HD-DVDs
  88. Duration                                 : 2 h 8 min
  89. Bit rate                                 : 59.0 kb/s
  90. Count of elements                        : 5002
  91. Stream size                              : 54.2 MiB (0%)
  92. Title                                    : SDH
  93. Language                                 : English
  94. Default                                  : No
  95. Forced                                   : No

  96. Text #3
  97. ID                                       : 6
  98. Format                                   : PGS
  99. Muxing mode                              : zlib
  100. Codec ID                                 : S_HDMV/PGS
  101. Codec ID/Info                            : Picture based subtitle format used on BDs/HD-DVDs
  102. Duration                                 : 2 h 9 min
  103. Bit rate                                 : 41.1 kb/s
  104. Count of elements                        : 4384
  105. Stream size                              : 38.0 MiB (0%)
  106. Language                                 : Danish
  107. Default                                  : No
  108. Forced                                   : No

  109. Text #4
  110. ID                                       : 7
  111. Format                                   : PGS
  112. Muxing mode                              : zlib
  113. Codec ID                                 : S_HDMV/PGS
  114. Codec ID/Info                            : Picture based subtitle format used on BDs/HD-DVDs
  115. Duration                                 : 2 h 9 min
  116. Bit rate                                 : 55.2 kb/s
  117. Count of elements                        : 4764
  118. Stream size                              : 51.0 MiB (0%)
  119. Language                                 : German
  120. Default                                  : No
  121. Forced                                   : No

  122. Text #5
  123. ID                                       : 8
  124. Format                                   : PGS
  125. Muxing mode                              : zlib
  126. Codec ID                                 : S_HDMV/PGS
  127. Codec ID/Info                            : Picture based subtitle format used on BDs/HD-DVDs
  128. Duration                                 : 2 h 10 min
  129. Bit rate                                 : 43.4 kb/s
  130. Count of elements                        : 4376
  131. Stream size                              : 40.4 MiB (0%)
  132. Language                                 : Spanish
  133. Default                                  : No
  134. Forced                                   : No

  135. Text #6
  136. ID                                       : 9
  137. Format                                   : PGS
  138. Muxing mode                              : zlib
  139. Codec ID                                 : S_HDMV/PGS
  140. Codec ID/Info                            : Picture based subtitle format used on BDs/HD-DVDs
  141. Duration                                 : 2 h 10 min
  142. Bit rate                                 : 46.4 kb/s
  143. Count of elements                        : 4442
  144. Stream size                              : 43.2 MiB (0%)
  145. Language                                 : French
  146. Default                                  : No
  147. Forced                                   : No

  148. Text #7
  149. ID                                       : 10
  150. Format                                   : PGS
  151. Muxing mode                              : zlib
  152. Codec ID                                 : S_HDMV/PGS
  153. Codec ID/Info                            : Picture based subtitle format used on BDs/HD-DVDs
  154. Duration                                 : 2 h 9 min
  155. Bit rate                                 : 40.8 kb/s
  156. Count of elements                        : 4380
  157. Stream size                              : 37.7 MiB (0%)
  158. Language                                 : Italian
  159. Default                                  : No
  160. Forced                                   : No

  161. Text #8
  162. ID                                       : 11
  163. Format                                   : PGS
  164. Muxing mode                              : zlib
  165. Codec ID                                 : S_HDMV/PGS
  166. Codec ID/Info                            : Picture based subtitle format used on BDs/HD-DVDs
  167. Duration                                 : 2 h 8 min
  168. Bit rate                                 : 27.8 kb/s
  169. Count of elements                        : 3708
  170. Stream size                              : 25.4 MiB (0%)
  171. Language                                 : Japanese
  172. Default                                  : No
  173. Forced                                   : No

  174. Text #9
  175. ID                                       : 12
  176. Format                                   : PGS
  177. Muxing mode                              : zlib
  178. Codec ID                                 : S_HDMV/PGS
  179. Codec ID/Info                            : Picture based subtitle format used on BDs/HD-DVDs
  180. Duration                                 : 2 h 9 min
  181. Bit rate                                 : 40.6 kb/s
  182. Count of elements                        : 3540
  183. Stream size                              : 37.5 MiB (0%)
  184. Language                                 : Dutch
  185. Default                                  : No
  186. Forced                                   : No

  187. Text #10
  188. ID                                       : 13
  189. Format                                   : PGS
  190. Muxing mode                              : zlib
  191. Codec ID                                 : S_HDMV/PGS
  192. Codec ID/Info                            : Picture based subtitle format used on BDs/HD-DVDs
  193. Duration                                 : 2 h 9 min
  194. Bit rate                                 : 40.8 kb/s
  195. Count of elements                        : 3614
  196. Stream size                              : 37.7 MiB (0%)
  197. Language                                 : Norwegian
  198. Default                                  : No
  199. Forced                                   : No

  200. Text #11
  201. ID                                       : 14
  202. Format                                   : PGS
  203. Muxing mode                              : zlib
  204. Codec ID                                 : S_HDMV/PGS
  205. Codec ID/Info                            : Picture based subtitle format used on BDs/HD-DVDs
  206. Duration                                 : 2 h 9 min
  207. Bit rate                                 : 44.6 kb/s
  208. Count of elements                        : 4210
  209. Stream size                              : 41.3 MiB (0%)
  210. Language                                 : Finnish
  211. Default                                  : No
  212. Forced                                   : No

  213. Text #12
  214. ID                                       : 15
  215. Format                                   : PGS
  216. Muxing mode                              : zlib
  217. Codec ID                                 : S_HDMV/PGS
  218. Codec ID/Info                            : Picture based subtitle format used on BDs/HD-DVDs
  219. Duration                                 : 2 h 9 min
  220. Bit rate                                 : 34.5 kb/s
  221. Count of elements                        : 3576
  222. Stream size                              : 31.9 MiB (0%)
  223. Language                                 : Swedish
  224. Default                                  : No
  225. Forced                                   : No

  226. Text #13
  227. ID                                       : 16
  228. Format                                   : PGS
  229. Muxing mode                              : zlib
  230. Codec ID                                 : S_HDMV/PGS
  231. Codec ID/Info                            : Picture based subtitle format used on BDs/HD-DVDs
  232. Duration                                 : 2 h 7 min
  233. Bit rate                                 : 336 b/s
  234. Count of elements                        : 40
  235. Stream size                              : 315 KiB (0%)
  236. Language                                 : Japanese
  237. Default                                  : No
  238. Forced                                   : No

  239. Menu
  240. 00:00:00.000                             : :Chapter 01
  241. 00:03:43.306                             : :Chapter 02
  242. 00:05:25.617                             : :Chapter 03
  243. 00:07:46.549                             : :Chapter 04
  244. 00:11:39.991                             : :Chapter 05
  245. 00:14:17.732                             : :Chapter 06
  246. 00:19:03.559                             : :Chapter 07
  247. 00:21:14.732                             : :Chapter 08
  248. 00:24:03.984                             : :Chapter 09
  249. 00:35:16.323                             : :Chapter 10
  250. 00:42:32.008                             : :Chapter 11
  251. 00:50:16.805                             : :Chapter 12
  252. 01:00:12.192                             : :Chapter 13
  253. 01:03:50.243                             : :Chapter 14
  254. 01:13:55.806                             : :Chapter 15
  255. 01:16:51.065                             : :Chapter 16
  256. 01:19:07.993                             : :Chapter 17
  257. 01:23:00.559                             : :Chapter 18
  258. 01:30:24.753                             : :Chapter 19
  259. 01:32:20.618                             : :Chapter 20
  260. 01:35:34.854                             : :Chapter 21
  261. 01:38:39.956                             : :Chapter 22
  262. 01:39:45.813                             : :Chapter 23
  263. 01:46:45.190                             : :Chapter 24
  264. 01:52:47.928                             : :Chapter 25
  265. 02:01:25.069                             : :Chapter 26
  266. 02:03:36.451                             : :Chapter 27
  267. 02:08:10.182                             : :Chapter 28
復制代碼









本帖隱藏的下載地址需要VIP會員才可瀏覽,您需要升級才可瀏覽,點擊這里升級VIP
分享到:  QQ好友和群QQ好友和群
收藏收藏
回復

使用道具 舉報

懶得打字嘛,點擊右側快捷回復 【右側內容,后臺自定義】
您需要登錄后才可以回帖 登錄 | 立即注冊

本版積分規則

Archiver|手機版|小黑屋| 中國高清網 ( ICP備17007870號-2 ) |網站地圖 

GMT+8, 2020-7-13 03:04 , Processed in 0.106636 second(s), 38 queries .

Powered by HDchina X3.4

Copyright 2017-2019©HDchina.All right reserved

返回頂部 聯系我們
彩票开奖结果