查看: 181|回復: 4
打印 上一主題 下一主題

[劇情片] 歲月神偷 Echoes.Of.The.Rainbow.2010.CHINESE.1080p.BluRay.x264.DTS-FGT 10.65GB

[復制鏈接]

 成長值: 3560

級別:資源管理組

注冊時間
2017-10-20
最后登錄
2019-12-25
聽眾
1
收聽
0
主題
88967
藍光幣
74198 枚
貢獻
13329 點
跳轉到指定樓層
樓主
發表于 2019-11-3 15:43:55 | 只看該作者 |只看大圖 回帖獎勵 |倒序瀏覽 |閱讀模式


譯  名 歲月神偷 / 1969太空漫游 / Echoes Of The Rainbow
片  名 歲月神偷
年  代 2010
產  地 中國香港 / 中國大陸
類  別 劇情 / 家庭
語  言 粵語 / 漢語普通話 / 英語 / 上海話 / 法語
上映日期 2010-02-14(柏林電影節) / 2010-03-11(中國香港) / 2010-04-16(中國大陸)
IMDb評分  7.4/10 from 1632 users
IMDb鏈接  https://www.imdb.com/title/tt1602572
豆瓣評分 8.7/10 from 410183 users
豆瓣鏈接 https://movie.douban.com/subject/3792799/
片  長 117分鐘
導  演 羅啟銳 Alex Law
編  劇 羅啟銳 Alex Law / 張婉婷 Mabel Cheung
主  演 吳君如 Sandra Ng
       任達華 Simon Yam
       鐘紹圖 Buzz Chung
       李治廷 Aarif Lee
       蔡穎恩 Evelyn Choi
       秦沛 Paul Chun
       夏萍 Ping Ha
       谷德昭 Vincent Kok
       許鞍華 Ann Hui
       張同祖 Tongzu Zhang
       莊域飛 John Wakefield
       威廉希路
       李健興
       林耀祺
       廖愛玲
       張翼東
       錢耀榮
       譚瓚強
       陳慶航
       黎祥榮


標  簽 香港 | 溫情 | 親情 | 人生 | 家庭 | 懷舊 | 感人 | 劇情

簡  介  

  60年代的香港,風云變幻。一面要忍受港英政府的壓制,一面又受到內地運動的波及,更要面對不時登陸的臺風暴雨。老字號的永利街就處在這樣一個風暴的旋渦中心。
  鞋匠羅一家四口,在街尾以做鞋為生。羅先生(任達華 飾)做得一手好鞋,在那個混亂的年代僅能養家糊口;羅太太(吳君如 飾)為人辛辣直率,人稱“俠盜羅嫂”。大兒子羅進一(李治廷 飾)16歲,品妹兼優,是運動會的冠軍,全家人的希望,也是永利街的驕傲;小兒子羅進二(鐘紹圖 飾)8歲,在父母溺愛之下,天性頑劣,出了名的頑皮整蠱……一家人艱難度日,也算其樂融融。
  然而大兒子與富家小姐芳菲(蔡穎恩 飾)之間一段純美的初戀、一場掃蕩整個香港的颶風暴雨、更有一場潛伏已久的噩夢,讓這個普通家庭的平安幸福在一夜之間陡生變故、支離破碎……面對歲月這個最大的“神偷”,頑強不屈的人該如何去抵抗?
  2010第60屆柏林電影節“新生代單元”最佳影片水晶熊獎,第29屆香港電影金像獎最佳編劇、最佳男主角、最佳新演員、最佳原創電影歌曲4項大獎。

獲獎情況  

  第29屆香港電影金像獎(2010)
  最佳編劇 羅啟銳
  最佳男主角 任達華
  最佳女主角(提名) 吳君如
  最佳新演員 李治廷
  最佳新演員(提名) 鐘紹圖
  最佳原創電影歌曲 羅啟銳 / 李治廷 / 盧冠廷

  第31屆大眾電影百花獎(2012)
  最佳編劇(提名) 羅啟銳
  最佳男主角(提名) 任達華
  最佳女主角(提名) 吳君如
  最佳男配角(提名) 李治廷

  第14屆中國電影華表獎(2011)
  優秀境圍華裔導演獎(提名) 羅啟銳
  優秀境圍華裔女演員獎 吳君如
  優秀合拍片獎(提名)

  第5屆亞洲電影大獎(2011)
  最佳新演員(提名) 李治廷

  第10屆中國長春電影節(2010)
  金鹿獎 最佳女配角 吳君如
  評委會特別獎

  第11屆華語電影傳媒大獎(2011)
  百家傳媒年度致敬電影(提名)
  最佳新演員(提名) 李治廷
  1. Video
  2. ID                                       : 1
  3. Format                                   : AVC
  4. Format/Info                              : Advanced Video Codec
  5. Format profile                           : [email protected]
  6. Format settings                          : CABAC / 4 Ref Frames
  7. Format settings, CABAC                   : Yes
  8. Format settings, Reference frames        : 4 frames
  9. Codec ID                                 : V_MPEG4/ISO/AVC
  10. Duration                                 : 1 h 57 min
  11. Bit rate                                 : 11.5 Mb/s
  12. Width                                    : 1 920 pixels
  13. Height                                   : 1 036 pixels
  14. Display aspect ratio                     : 1.85:1
  15. Frame rate mode                          : Constant
  16. Frame rate                               : 24.000 FPS
  17. Color space                              : YUV
  18. Chroma subsampling                       : 4:2:0
  19. Bit depth                                : 8 bits
  20. Scan type                                : Progressive
  21. Bits/(Pixel*Frame)                       : 0.241
  22. Stream size                              : 9.42 GiB (88%)
  23. Title                                    : Echoes.Of.The.Rainbow.2010.CHINESE.1080p.BluRay.x264.DTS-FGT
  24. Writing library                          : x264 core 148 r2748 97eaef2
  25. Encoding settings                        : cabac=1 / ref=4 / deblock=1:-2:-2 / analyse=0x3:0x113 / me=umh / subme=9 / psy=1 / psy_rd=1.00:0.15 / mixed_ref=1 / me_range=16 / chroma_me=1 / trellis=2 / 8x8dct=1 / cqm=0 / deadzone=21,11 / fast_pskip=1 / chroma_qp_offset=-3 / threads=24 / lookahead_threads=3 / sliced_threads=0 / nr=0 / decimate=1 / interlaced=0 / bluray_compat=0 / constrained_intra=0 / bframes=3 / b_pyramid=2 / b_adapt=1 / b_bias=0 / direct=3 / weightb=1 / open_gop=0 / weightp=2 / keyint=250 / keyint_min=25 / scenecut=40 / intra_refresh=0 / rc_lookahead=50 / rc=2pass / mbtree=1 / bitrate=11500 / ratetol=1.0 / qcomp=0.60 / qpmin=0 / qpmax=69 / qpstep=4 / cplxblur=20.0 / qblur=0.5 / vbv_maxrate=31250 / vbv_bufsize=31250 / nal_hrd=none / filler=0 / ip_ratio=1.40 / aq=1:1.00
  26. Language                                 : Chinese
  27. Default                                  : Yes
  28. Forced                                   : No

  29. Audio
  30. ID                                       : 2
  31. Format                                   : DTS
  32. Format/Info                              : Digital Theater Systems
  33. Codec ID                                 : A_DTS
  34. Duration                                 : 1 h 57 min
  35. Bit rate mode                            : Constant
  36. Bit rate                                 : 1 509 kb/s
  37. Channel(s)                               : 6 channels
  38. Channel layout                           : C L R Ls Rs LFE
  39. Sampling rate                            : 48.0 kHz
  40. Frame rate                               : 93.750 FPS (512 SPF)
  41. Bit depth                                : 16 bits
  42. Compression mode                         : Lossy
  43. Stream size                              : 1.24 GiB (12%)
  44. Title                                    : Echoes.Of.The.Rainbow.2010.CHINESE.1080p.BluRay.x264.DTS-FGT
  45. Language                                 : Chinese
  46. Default                                  : Yes
  47. Forced                                   : No

  48. Text
  49. ID                                       : 3
  50. Format                                   : UTF-8
  51. Codec ID                                 : S_TEXT/UTF8
  52. Codec ID/Info                            : UTF-8 Plain Text
  53. Duration                                 : 1 h 50 min
  54. Bit rate                                 : 44 b/s
  55. Count of elements                        : 1401
  56. Stream size                              : 36.5 KiB (0%)
  57. Language                                 : English
  58. Default                                  : Yes
  59. Forced                                   : No

  60. Menu
  61. 00:00:00.000                             : en:Chapter 1
  62. 00:13:41.500                             : en:Chapter 2
  63. 00:24:06.833                             : en:Chapter 3
  64. 00:35:08.208                             : en:Chapter 4
  65. 00:49:51.625                             : en:Chapter 5
  66. 00:58:54.375                             : en:Chapter 6
  67. 01:08:36.000                             : en:Chapter 7
  68. 01:22:43.833                             : en:Chapter 8
  69. 01:37:11.500                             : en:Chapter 9
  70. 01:48:38.333                             : en:Chapter 10
復制代碼









分享到:  QQ好友和群QQ好友和群
收藏收藏
VIP會員免費任意下載本站所有資源!---點擊開通
回復

使用道具 舉報

級別:群眾演員 Lv.3

注冊時間
2019-10-27
最后登錄
2019-12-24
聽眾
1
收聽
0
主題
0
藍光幣
100 枚
貢獻
0 點
沙發
發表于 2019-11-3 23:08:17 | 只看該作者

樓主太厲害了!樓主,電影應該很好看我覺得中國高清電影網真是個好地方!
VIP會員免費任意下載本站所有資源!---點擊開通
回復

使用道具 舉報

級別:群眾演員 Lv.3

注冊時間
2019-11-4
最后登錄
2019-12-24
聽眾
1
收聽
0
主題
0
藍光幣
42 枚
貢獻
0 點
板凳
發表于 2019-11-4 06:31:18 | 只看該作者
樓主發貼辛苦了,謝謝樓主分享!我覺得中國高清電影網是注冊對了!
VIP會員免費任意下載本站所有資源!---點擊開通
回復

使用道具 舉報

級別:專業龍套 Lv.4

注冊時間
2019-6-11
最后登錄
2019-12-25
聽眾
12
收聽
0
主題
0
藍光幣
323 枚
貢獻
0 點
地板
發表于 2019-11-4 20:12:05 | 只看該作者
感謝樓主分享好電影
VIP會員免費任意下載本站所有資源!---點擊開通
回復

使用道具 舉報

級別:普通觀眾 Lv.2

注冊時間
2019-11-6
最后登錄
2019-12-22
聽眾
1
收聽
0
主題
0
藍光幣
36 枚
貢獻
0 點
QQ
5#
發表于 2019-11-13 14:28:41 | 只看該作者
樓主發貼辛苦了,謝謝樓主分享!我覺得中國高清電影網是注冊對了!
VIP會員免費任意下載本站所有資源!---點擊開通
回復

使用道具 舉報

懶得打字嘛,點擊右側快捷回復 【右側內容,后臺自定義】
您需要登錄后才可以回帖 登錄 | 立即注冊

本版積分規則

QQ|Archiver|手機版|小黑屋| 中國高清網 |網站地圖

GMT+8, 2019-12-25 11:34 , Processed in 0.182489 second(s), 37 queries .

Powered by HDchina X3.4

Copyright 2017-2019©HDchina.All right reserved

返回頂部 聯系我們
彩票开奖结果