查看: 154|回復: 0
打印 上一主題 下一主題

[REMUX.HEVC] 國際空間街/太空街 IMAX.Space.Station.2002.DOCU.2160p.BluRay.REMUX.HEVC.DTS-X.5.1-FGT 20.56GB

[復制鏈接]

 成長值: 3560

級別:資源管理組

注冊時間
2017-10-20
最后登錄
2019-12-25
聽眾
1
收聽
0
主題
88967
藍光幣
74192 枚
貢獻
13329 點
跳轉到指定樓層
樓主
發表于 2019-11-5 17:51:42 | 只看該作者 |只看大圖 回帖獎勵 |倒序瀏覽 |閱讀模式


譯  名 國際空間街 / 太空街
片  名 Space Station 3D
年  代 2002
產  地 加拿大 / 美國
類  別 紀錄片
語  言 英語
上映日期 2002-04-17
IMDb評分  7.5/10 from 1457 users
IMDb鏈接  http://www.imdb.com/title/tt0290296
豆瓣評分 8.3/10 from 908 users
豆瓣鏈接 https://movie.douban.com/subject/1419880/
片  長 47 分鐘
導  演 Toni Myers
編  劇 Toni Myers
主  演 Tom Cruise


標  簽 紀錄片 | IMAX | 美國 | 科普 | 太空 | 3D | 2002 | IMAX3D

簡  介  

  《國際空間街》是由美國IMAX公司拍攝3D紀錄片,它再現各國宇航員在圍太空航行的宇宙空間街上的日常生活。影片展示的完全不同與地球上的生活狀態,令觀眾聞所未聞,充滿著有趣的細節。影片由IMAX巨幅銀幕還原的影像,逼真的視覺效果可以令觀眾忘記現實,仿佛也身處美妙的失重世界之中。

  1. Video
  2. ID                                       : 1
  3. Format                                   : HEVC
  4. Format/Info                              : High Efficiency Video Coding
  5. Format profile                           : Main [email protected]@High
  6. HDR format                               : SMPTE ST 2086, HDR10 compatible
  7. Codec ID                                 : V_MPEGH/ISO/HEVC
  8. Duration                                 : 47 min 15 s
  9. Bit rate                                 : 47.4 Mb/s
  10. Width                                    : 3 840 pixels
  11. Height                                   : 2 160 pixels
  12. Display aspect ratio                     : 16:9
  13. Frame rate mode                          : Constant
  14. Frame rate                               : 23.976 (24000/1001) FPS
  15. Color space                              : YUV
  16. Chroma subsampling                       : 4:2:0 (Type 2)
  17. Bit depth                                : 10 bits
  18. Bits/(Pixel*Frame)                       : 0.239
  19. Stream size                              : 15.7 GiB (76%)
  20. Title                                    : IMAX.Space.Station.2002.DOCU.2160p.BluRay.REMUX.HEVC.DTS-X.5.1-FGT
  21. Writing library                          : ATEME Titan File 3.9.4 (4.9.4.6)        
  22. Language                                 : English
  23. Default                                  : No
  24. Forced                                   : No
  25. Color range                              : Limited
  26. Color primaries                          : BT.2020
  27. Transfer characteristics                 : PQ
  28. Matrix coefficients                      : BT.2020 non-constant
  29. Mastering display color primaries        : Display P3
  30. Mastering display luminance              : min: 0.0050 cd/m2, max: 1000 cd/m2
  31. Maximum Content Light Level              : 1000 cd/m2
  32. Maximum Frame-Average Light Level        : 300 cd/m2

  33. Audio #1
  34. ID                                       : 2
  35. Format                                   : DTS XLL
  36. Format/Info                              : Digital Theater Systems
  37. Commercial name                          : DTS-HD Master Audio
  38. Codec ID                                 : A_DTS
  39. Duration                                 : 47 min 10 s
  40. Bit rate mode                            : Variable
  41. Bit rate                                 : 4 725 kb/s
  42. Channel(s)                               : 6 channels
  43. Channel layout                           : C L R Ls Rs LFE
  44. Sampling rate                            : 48.0 kHz
  45. Frame rate                               : 93.750 FPS (512 SPF)
  46. Bit depth                                : 24 bits
  47. Compression mode                         : Lossless
  48. Stream size                              : 1.56 GiB (8%)
  49. Title                                    : IMAX.Space.Station.2002.DOCU.2160p.BluRay.REMUX.HEVC.DTS-X.5.1-FGT
  50. Language                                 : English
  51. Default                                  : Yes
  52. Forced                                   : No

  53. Audio #2
  54. ID                                       : 3
  55. Format                                   : DTS XLL
  56. Format/Info                              : Digital Theater Systems
  57. Commercial name                          : DTS-HD Master Audio
  58. Codec ID                                 : A_DTS
  59. Duration                                 : 47 min 10 s
  60. Bit rate mode                            : Variable
  61. Bit rate                                 : 2 681 kb/s
  62. Channel(s)                               : 6 channels
  63. Channel layout                           : C L R Ls Rs LFE
  64. Sampling rate                            : 48.0 kHz
  65. Frame rate                               : 93.750 FPS (512 SPF)
  66. Bit depth                                : 24 bits
  67. Compression mode                         : Lossless
  68. Stream size                              : 905 MiB (4%)
  69. Title                                    : IMAX.Space.Station.2002.DOCU.2160p.BluRay.REMUX.HEVC.DTS-X.5.1-FGT
  70. Language                                 : French
  71. Default                                  : No
  72. Forced                                   : No

  73. Audio #3
  74. ID                                       : 4
  75. Format                                   : DTS XLL
  76. Format/Info                              : Digital Theater Systems
  77. Commercial name                          : DTS-HD Master Audio
  78. Codec ID                                 : A_DTS
  79. Duration                                 : 47 min 10 s
  80. Bit rate mode                            : Variable
  81. Bit rate                                 : 2 680 kb/s
  82. Channel(s)                               : 6 channels
  83. Channel layout                           : C L R Ls Rs LFE
  84. Sampling rate                            : 48.0 kHz
  85. Frame rate                               : 93.750 FPS (512 SPF)
  86. Bit depth                                : 24 bits
  87. Compression mode                         : Lossless
  88. Stream size                              : 904 MiB (4%)
  89. Title                                    : IMAX.Space.Station.2002.DOCU.2160p.BluRay.REMUX.HEVC.DTS-X.5.1-FGT
  90. Language                                 : Spanish
  91. Default                                  : No
  92. Forced                                   : No

  93. Audio #4
  94. ID                                       : 5
  95. Format                                   : DTS XLL
  96. Format/Info                              : Digital Theater Systems
  97. Commercial name                          : DTS-HD Master Audio
  98. Codec ID                                 : A_DTS
  99. Duration                                 : 47 min 10 s
  100. Bit rate mode                            : Variable
  101. Bit rate                                 : 2 692 kb/s
  102. Channel(s)                               : 6 channels
  103. Channel layout                           : C L R Ls Rs LFE
  104. Sampling rate                            : 48.0 kHz
  105. Frame rate                               : 93.750 FPS (512 SPF)
  106. Bit depth                                : 24 bits
  107. Compression mode                         : Lossless
  108. Stream size                              : 908 MiB (4%)
  109. Title                                    : IMAX.Space.Station.2002.DOCU.2160p.BluRay.REMUX.HEVC.DTS-X.5.1-FGT
  110. Language                                 : German
  111. Default                                  : No
  112. Forced                                   : No

  113. Audio #5
  114. ID                                       : 6
  115. Format                                   : DTS XLL
  116. Format/Info                              : Digital Theater Systems
  117. Commercial name                          : DTS-HD Master Audio
  118. Codec ID                                 : A_DTS
  119. Duration                                 : 47 min 10 s
  120. Bit rate mode                            : Variable
  121. Bit rate                                 : 1 993 kb/s
  122. Channel(s)                               : 2 channels
  123. Channel layout                           : L R
  124. Sampling rate                            : 48.0 kHz
  125. Frame rate                               : 93.750 FPS (512 SPF)
  126. Bit depth                                : 24 bits
  127. Compression mode                         : Lossless
  128. Stream size                              : 673 MiB (3%)
  129. Title                                    : IMAX.Space.Station.2002.DOCU.2160p.BluRay.REMUX.HEVC.DTS-X.5.1-FGT
  130. Language                                 : English
  131. Default                                  : No
  132. Forced                                   : No

  133. Text #1
  134. ID                                       : 7
  135. Format                                   : UTF-8
  136. Codec ID                                 : S_TEXT/UTF8
  137. Codec ID/Info                            : UTF-8 Plain Text
  138. Duration                                 : 43 min 26 s
  139. Bit rate                                 : 80 b/s
  140. Count of elements                        : 713
  141. Stream size                              : 25.7 KiB (0%)
  142. Title                                    : English-SRT
  143. Language                                 : English
  144. Default                                  : Yes
  145. Forced                                   : No

  146. Text #2
  147. ID                                       : 8
  148. Format                                   : PGS
  149. Muxing mode                              : zlib
  150. Codec ID                                 : S_HDMV/PGS
  151. Codec ID/Info                            : Picture based subtitle format used on BDs/HD-DVDs
  152. Duration                                 : 45 min 24 s
  153. Bit rate                                 : 64.2 kb/s
  154. Count of elements                        : 1546
  155. Stream size                              : 20.9 MiB (0%)
  156. Title                                    : English-PGS
  157. Language                                 : English
  158. Default                                  : No
  159. Forced                                   : No

  160. Text #3
  161. ID                                       : 9
  162. Format                                   : PGS
  163. Muxing mode                              : zlib
  164. Codec ID                                 : S_HDMV/PGS
  165. Codec ID/Info                            : Picture based subtitle format used on BDs/HD-DVDs
  166. Duration                                 : 43 min 26 s
  167. Bit rate                                 : 67.7 kb/s
  168. Count of elements                        : 1466
  169. Stream size                              : 21.0 MiB (0%)
  170. Title                                    : French-PGS
  171. Language                                 : French
  172. Default                                  : No
  173. Forced                                   : No

  174. Text #4
  175. ID                                       : 10
  176. Format                                   : PGS
  177. Muxing mode                              : zlib
  178. Codec ID                                 : S_HDMV/PGS
  179. Codec ID/Info                            : Picture based subtitle format used on BDs/HD-DVDs
  180. Duration                                 : 43 min 26 s
  181. Bit rate                                 : 69.2 kb/s
  182. Count of elements                        : 1548
  183. Stream size                              : 21.5 MiB (0%)
  184. Title                                    : Spanish-PGS
  185. Language                                 : Spanish
  186. Default                                  : No
  187. Forced                                   : No

  188. Text #5
  189. ID                                       : 11
  190. Format                                   : PGS
  191. Muxing mode                              : zlib
  192. Codec ID                                 : S_HDMV/PGS
  193. Codec ID/Info                            : Picture based subtitle format used on BDs/HD-DVDs
  194. Duration                                 : 44 min 58 s
  195. Bit rate                                 : 69.9 kb/s
  196. Count of elements                        : 1530
  197. Stream size                              : 22.5 MiB (0%)
  198. Title                                    : German-PGS
  199. Language                                 : German
  200. Default                                  : No
  201. Forced                                   : No

  202. Menu
  203. 00:00:00.000                             : en:Chapter 01
  204. 00:06:34.644                             : en:Chapter 02
  205. 00:14:41.005                             : en:Chapter 03
  206. 00:23:25.862                             : en:Chapter 04
  207. 00:29:30.268                             : en:Chapter 05
  208. 00:45:22.052                             : en:Chapter 06
  209. 00:47:11.036                             : en:Chapter 07
復制代碼









本帖隱藏的下載地址需要VIP會員才可瀏覽,您需要升級才可瀏覽,點擊這里升級VIP
分享到:  QQ好友和群QQ好友和群
收藏收藏
VIP會員免費任意下載本站所有資源!---點擊開通
回復

使用道具 舉報

懶得打字嘛,點擊右側快捷回復 【右側內容,后臺自定義】
您需要登錄后才可以回帖 登錄 | 立即注冊

本版積分規則

QQ|Archiver|手機版|小黑屋| 中國高清網 |網站地圖

GMT+8, 2019-12-25 11:18 , Processed in 0.187165 second(s), 36 queries .

Powered by HDchina X3.4

Copyright 2017-2019©HDchina.All right reserved

返回頂部 聯系我們
彩票开奖结果