查看: 176|回復: 0
打印 上一主題 下一主題

[10bit.HDR] 再造戰士/宇宙戰士 Universal.Soldier.1992.2160p.BluRay.x265.10bit.SDR.DTS-HD.MA.5.1-SWTYBLZ 44.02GB

[復制鏈接]

 成長值: 3560

級別:資源管理組

注冊時間
2017-10-20
最后登錄
2019-12-25
聽眾
1
收聽
0
主題
88967
藍光幣
74198 枚
貢獻
13329 點
跳轉到指定樓層
樓主
發表于 2019-11-5 18:02:47 | 只看該作者 |只看大圖 回帖獎勵 |倒序瀏覽 |閱讀模式


譯  名 再造戰士 / 宇宙戰士 / 魔鬼命令
片  名 Universal Soldier
年  代 1992
產  地 美國
類  別 劇情 / 動作 / 科幻
語  言 英語
上映日期 1992-07-10
IMDb評分  6.0/10 from 78583 users
IMDb鏈接  https://www.imdb.com/title/tt0105698
豆瓣評分 6.6/10 from 2917 users
豆瓣鏈接 https://movie.douban.com/subject/1298717/
片  長 102 分鐘
導  演 羅蘭·艾默里奇 Roland Emmerich
編  劇 Christopher Leitch / Richard Rothstein
主  演 杜夫·朗格 Dolph Lundgren
       尚格·云頓 Jean-Claude Van Damme
       艾利·沃克 Ally Walker


標  簽 科幻 | 動作 | 美國 | 尚格·云頓 | 1992 | 美國電影 | 暴力 | 動作片

簡  介  

  越戰后,美國政府進行了一項絕密的科妹計劃。科妹家們將越戰中犧牲的士兵的尸體冰凍起來,植入電腦芯片,輸入戰爭程序,講他們改造成為新一代的戰爭機器人――“宇宙戰士”,這些機器人沒有情感和以前的記憶,只有冰冷的殺戮武器。士兵盧克(尚格?云頓 Jean-Claude Van Damme 飾)和班長安德魯(杜夫?朗格 Dolph Lundgren 飾)就是其中兩員,他們被派往參加一場新的戰爭。戰爭中,兩人的芯片突然出錯,令兩人都恢復了以前的記憶。
  盧克記起越戰當年正是安德魯突然性情大變將屬下和俘虜都殺光,誤闖美軍基地的女記者羅伯斯(艾麗?沃克 Ally Walker 飾)意圍獲悉了美軍這一秘密。本來羅伯斯難逃一死,關鍵時刻盧克救走了她。于是,美軍派出所有的宇宙戰士開始追殺二人。
  1. Video
  2. ID                                       : 1
  3. Format                                   : HEVC
  4. Format/Info                              : High Efficiency Video Coding
  5. Format profile                           : Main [email protected]@High
  6. Codec ID                                 : V_MPEGH/ISO/HEVC
  7. Duration                                 : 1 h 43 min
  8. Bit rate                                 : 55.6 Mb/s
  9. Width                                    : 3 840 pixels
  10. Height                                   : 1 634 pixels
  11. Display aspect ratio                     : 2.35:1
  12. Frame rate mode                          : Constant
  13. Frame rate                               : 24.000 FPS
  14. Color space                              : YUV
  15. Chroma subsampling                       : 4:2:0
  16. Bit depth                                : 10 bits
  17. Bits/(Pixel*Frame)                       : 0.369
  18. Stream size                              : 40.1 GiB (92%)
  19. Title                                    : Universal.Soldier.1992.2160p.BluRay.x265.10bit.SDR.DTS-HD.MA.5.1-SWTYBLZ
  20. Writing library                          : x265 3.0ed72af837053:[Windows][GCC 8.2.0][64 bit] 10bit
  21. Encoding settings                        : cpuid=1111039 / frame-threads=16 / numa-pools=44,44 / wpp / no-pmode / no-pme / no-psnr / no-ssim / log-level=2 / input-csp=1 / input-res=3840x1634 / interlace=0 / total-frames=148810 / level-idc=51 / high-tier=1 / uhd-bd=0 / ref=3 / no-allow-non-conformance / repeat-headers / annexb / aud / hrd / info / hash=0 / no-temporal-layers / no-open-gop / min-keyint=1 / keyint=24 / gop-lookahead=0 / bframes=4 / b-adapt=2 / b-pyramid / bframe-bias=0 / rc-lookahead=25 / lookahead-slices=4 / scenecut=40 / radl=0 / no-splice / no-intra-refresh / ctu=64 / min-cu-size=8 / no-rect / no-amp / max-tu-size=32 / tu-inter-depth=1 / tu-intra-depth=1 / limit-tu=0 / rdoq-level=0 / dynamic-rd=0.00 / no-ssim-rd / signhide / no-tskip / nr-intra=0 / nr-inter=0 / no-constrained-intra / strong-intra-smoothing / max-merge=2 / limit-refs=3 / no-limit-modes / me=1 / subme=2 / merange=57 / temporal-mvp / weightp / no-weightb / no-analyze-src-pics / deblock=0:0 / no-sao / no-sao-non-deblock / rd=3 / no-early-skip / rskip / no-fast-intra / no-tskip-fast / no-cu-lossless / no-b-intra / no-splitrd-skip / rdpenalty=0 / psy-rd=2.00 / psy-rdoq=0.00 / no-rd-refine / no-lossless / cbqpoffs=0 / crqpoffs=0 / rc=crf / crf=18.0 / qcomp=0.60 / qpstep=4 / stats-write=0 / stats-read=0 / vbv-maxrate=160000 / vbv-bufsize=160000 / vbv-init=0.9 / crf-max=0.0 / crf-min=0.0 / ipratio=1.40 / pbratio=1.30 / aq-mode=1 / aq-strength=1.00 / cutree / zone-count=0 / no-strict-cbr / qg-size=32 / no-rc-grain / qpmax=69 / qpmin=0 / no-const-vbv / sar=1 / overscan=0 / videoformat=5 / range=0 / colorprim=2 / transfer=2 / colormatrix=2 / chromaloc=0 / display-window=0 / max-cll=0,0 / min-luma=0 / max-luma=1023 / log2-max-poc-lsb=8 / vui-timing-info / vui-hrd-info / slices=1 / opt-qp-pps / opt-ref-list-length-pps / no-multi-pass-opt-rps / scenecut-bias=0.05 / no-opt-cu-delta-qp / no-aq-motion / no-hdr / no-hdr-opt / no-dhdr10-opt / no-idr-recovery-sei / analysis-reuse-level=5 / scale-factor=0 / refine-intra=0 / refine-inter=0 / refine-mv=0 / refine-ctu-distortion=0 / no-limit-sao / ctu-info=0 / no-lowpass-dct / refine-analysis-type=0 / copy-pic=1 / max-ausize-factor=1.0 / no-dynamic-refine / no-single-sei / no-hevc-aq / qp-adaptation-range=1.00
  22. Language                                 : English
  23. Default                                  : Yes
  24. Forced                                   : No

  25. Audio #1
  26. ID                                       : 2
  27. Format                                   : DTS XLL
  28. Format/Info                              : Digital Theater Systems
  29. Commercial name                          : DTS-HD Master Audio
  30. Codec ID                                 : A_DTS
  31. Duration                                 : 1 h 43 min
  32. Bit rate mode                            : Variable
  33. Bit rate                                 : 4 287 kb/s
  34. Channel(s)                               : 6 channels
  35. Channel layout                           : C L R Ls Rs LFE
  36. Sampling rate                            : 48.0 kHz
  37. Frame rate                               : 93.750 FPS (512 SPF)
  38. Bit depth                                : 24 bits
  39. Compression mode                         : Lossless
  40. Stream size                              : 3.09 GiB (7%)
  41. Title                                    : Universal.Soldier.1992.2160p.BluRay.x265.10bit.SDR.DTS-HD.MA.5.1-SWTYBLZ
  42. Language                                 : English
  43. Default                                  : Yes
  44. Forced                                   : No

  45. Audio #2
  46. ID                                       : 3
  47. Format                                   : AC-3
  48. Format/Info                              : Audio Coding 3
  49. Commercial name                          : Dolby Digital
  50. Codec ID                                 : A_AC3
  51. Duration                                 : 1 h 43 min
  52. Bit rate mode                            : Constant
  53. Bit rate                                 : 640 kb/s
  54. Channel(s)                               : 6 channels
  55. Channel layout                           : L R C LFE Ls Rs
  56. Sampling rate                            : 48.0 kHz
  57. Frame rate                               : 31.250 FPS (1536 SPF)
  58. Bit depth                                : 16 bits
  59. Compression mode                         : Lossy
  60. Stream size                              : 473 MiB (1%)
  61. Title                                    : Universal.Soldier.1992.2160p.BluRay.x265.10bit.SDR.DTS-HD.MA.5.1-SWTYBLZ
  62. Language                                 : English
  63. Service kind                             : Complete Main
  64. Default                                  : No
  65. Forced                                   : No

  66. Text #1
  67. ID                                       : 4
  68. Format                                   : UTF-8
  69. Codec ID                                 : S_TEXT/UTF8
  70. Codec ID/Info                            : UTF-8 Plain Text
  71. Duration                                 : 1 h 36 min
  72. Bit rate                                 : 47 b/s
  73. Count of elements                        : 1050
  74. Stream size                              : 33.3 KiB (0%)
  75. Title                                    : English-SRT
  76. Language                                 : English
  77. Default                                  : Yes
  78. Forced                                   : No

  79. Text #2
  80. ID                                       : 5
  81. Format                                   : UTF-8
  82. Codec ID                                 : S_TEXT/UTF8
  83. Codec ID/Info                            : UTF-8 Plain Text
  84. Duration                                 : 1 h 37 min
  85. Bit rate                                 : 57 b/s
  86. Count of elements                        : 1246
  87. Stream size                              : 40.7 KiB (0%)
  88. Title                                    : English-SDH-SRT
  89. Language                                 : English
  90. Default                                  : No
  91. Forced                                   : No

  92. Text #3
  93. ID                                       : 6
  94. Format                                   : PGS
  95. Muxing mode                              : zlib
  96. Codec ID                                 : S_HDMV/PGS
  97. Codec ID/Info                            : Picture based subtitle format used on BDs/HD-DVDs
  98. Duration                                 : 1 h 41 min
  99. Bit rate                                 : 19.3 kb/s
  100. Count of elements                        : 1660
  101. Stream size                              : 14.0 MiB (0%)
  102. Title                                    : German-PGS
  103. Language                                 : German
  104. Default                                  : No
  105. Forced                                   : No

  106. Text #4
  107. ID                                       : 7
  108. Format                                   : PGS
  109. Muxing mode                              : zlib
  110. Codec ID                                 : S_HDMV/PGS
  111. Codec ID/Info                            : Picture based subtitle format used on BDs/HD-DVDs
  112. Duration                                 : 1 h 37 min
  113. Bit rate                                 : 27.9 kb/s
  114. Count of elements                        : 2492
  115. Stream size                              : 19.4 MiB (0%)
  116. Title                                    : English-PGS
  117. Language                                 : English
  118. Default                                  : No
  119. Forced                                   : No

  120. Text #5
  121. ID                                       : 8
  122. Format                                   : PGS
  123. Muxing mode                              : zlib
  124. Codec ID                                 : S_HDMV/PGS
  125. Codec ID/Info                            : Picture based subtitle format used on BDs/HD-DVDs
  126. Duration                                 : 1 h 41 min
  127. Bit rate                                 : 15.2 kb/s
  128. Count of elements                        : 1888
  129. Stream size                              : 11.1 MiB (0%)
  130. Title                                    : French-PGS
  131. Language                                 : French
  132. Default                                  : No
  133. Forced                                   : No

  134. Text #6
  135. ID                                       : 9
  136. Format                                   : PGS
  137. Muxing mode                              : zlib
  138. Codec ID                                 : S_HDMV/PGS
  139. Codec ID/Info                            : Picture based subtitle format used on BDs/HD-DVDs
  140. Duration                                 : 1 h 38 min
  141. Bit rate                                 : 27.1 kb/s
  142. Count of elements                        : 2184
  143. Stream size                              : 19.2 MiB (0%)
  144. Title                                    : German-PGS
  145. Language                                 : German
  146. Default                                  : No
  147. Forced                                   : No

  148. Text #7
  149. ID                                       : 10
  150. Format                                   : PGS
  151. Muxing mode                              : zlib
  152. Codec ID                                 : S_HDMV/PGS
  153. Codec ID/Info                            : Picture based subtitle format used on BDs/HD-DVDs
  154. Duration                                 : 1 h 38 min
  155. Bit rate                                 : 27.2 kb/s
  156. Count of elements                        : 2186
  157. Stream size                              : 19.2 MiB (0%)
  158. Title                                    : French-PGS
  159. Language                                 : French
  160. Default                                  : No
  161. Forced                                   : No

  162. Text #8
  163. ID                                       : 11
  164. Format                                   : PGS
  165. Muxing mode                              : zlib
  166. Codec ID                                 : S_HDMV/PGS
  167. Codec ID/Info                            : Picture based subtitle format used on BDs/HD-DVDs
  168. Duration                                 : 1 h 36 min
  169. Bit rate                                 : 20.6 kb/s
  170. Count of elements                        : 1288
  171. Stream size                              : 14.2 MiB (0%)
  172. Title                                    : German-PGS
  173. Language                                 : German
  174. Default                                  : No
  175. Forced                                   : No

  176. Menu
  177. 00:00:00.000                             : en:Chapter 01
  178. 00:10:27.458                             : en:Chapter 02
  179. 00:20:51.791                             : en:Chapter 03
  180. 00:31:24.750                             : en:Chapter 04
  181. 00:42:41.333                             : en:Chapter 05
  182. 00:53:13.625                             : en:Chapter 06
  183. 01:04:07.500                             : en:Chapter 07
  184. 01:14:22.666                             : en:Chapter 08
  185. 01:21:52.958                             : en:Chapter 09
  186. 01:31:32.875                             : en:Chapter 10
復制代碼









本帖隱藏的下載地址需要VIP會員才可瀏覽,您需要升級才可瀏覽,點擊這里升級VIP
分享到:  QQ好友和群QQ好友和群
收藏收藏
VIP會員免費任意下載本站所有資源!---點擊開通
回復

使用道具 舉報

懶得打字嘛,點擊右側快捷回復 【右側內容,后臺自定義】
您需要登錄后才可以回帖 登錄 | 立即注冊

本版積分規則

QQ|Archiver|手機版|小黑屋| 中國高清網 |網站地圖

GMT+8, 2019-12-25 11:36 , Processed in 0.213141 second(s), 36 queries .

Powered by HDchina X3.4

Copyright 2017-2019©HDchina.All right reserved

返回頂部 聯系我們
彩票开奖结果