查看: 85|回復: 2
打印 上一主題 下一主題

[歷史片] 羅伯特·布魯斯 Robert.the.Bruce.2019.1080p.BluRay.x264.DTS-HD.MA.5.1-FGT 9.19GB

[復制鏈接]

 成長值: 3660

級別:資源管理組

注冊時間
2017-10-20
最后登錄
2020-1-4
聽眾
1
收聽
0
主題
89516
藍光幣
77733 枚
貢獻
13878 點
跳轉到指定樓層
樓主
發表于 2019-11-7 20:54:06 | 只看該作者 |只看大圖 回帖獎勵 |倒序瀏覽 |閱讀模式


譯  名 羅伯特·布魯斯
片  名 Robert the Bruce
年  代 2019
產  地 美國
類  別 歷史
語  言 英語
上映日期 2019-06-28(英國)
IMDb評分  5.4/10 from 470 users
IMDb鏈接  https://www.imdb.com/title/tt8000908
豆瓣評分 0/10 from 0 users
豆瓣鏈接 https://movie.douban.com/subject/30199661/
片  長 124分鐘
導  演 理查德·格雷 Richard Gray
主  演 艾瑪·肯尼 Emma Kenney
       扎克·麥克格溫 Zach McGowan
       杰瑞德·哈里斯 Jared Harris
       派屈克·福吉特 Patrick Fugit
       凱文·麥克納利 Kevin McNally
       安娜·哈徹森 Anna Hutchison
       梅羅拉·沃特斯 Melora Walters
       特麗莎·貝特曼 Talitha Bateman
       安古斯·麥克菲登 Angus Macfadyen
       Mhairi Calvey
       加布里埃爾·貝特曼 Gabriel Bateman
       迪爾梅德·默塔 Diarmaid Murtagh
       沙恩·科費 Shane Coffey
       Anthony J. Sharpe
       Gianni Capaldi


標  簽 戰爭 | 歷史

簡  介  

  The story of nobleman-turned-outlaw hero who was crowned king of Scots in the 14th century.
  1. Video
  2. ID                                       : 1
  3. Format                                   : AVC
  4. Format/Info                              : Advanced Video Codec
  5. Format profile                           : [email protected]
  6. Format settings                          : CABAC / 5 Ref Frames
  7. Format settings, CABAC                   : Yes
  8. Format settings, Reference frames        : 5 frames
  9. Codec ID                                 : V_MPEG4/ISO/AVC
  10. Duration                                 : 2 h 3 min
  11. Bit rate                                 : 8 617 kb/s
  12. Width                                    : 1 920 pixels
  13. Height                                   : 800 pixels
  14. Display aspect ratio                     : 2.40:1
  15. Frame rate mode                          : Constant
  16. Frame rate                               : 24.000 FPS
  17. Color space                              : YUV
  18. Chroma subsampling                       : 4:2:0
  19. Bit depth                                : 8 bits
  20. Scan type                                : Progressive
  21. Bits/(Pixel*Frame)                       : 0.234
  22. Stream size                              : 7.44 GiB (81%)
  23. Title                                    : Robert.the.Bruce.2019.1080p.BluRay.x264.DTS-HD.MA.5.1-FGT
  24. Writing library                          : x264 core 158 r2984 3759fcb
  25. Encoding settings                        : cabac=1 / ref=5 / deblock=1:-3:-3 / analyse=0x3:0x113 / me=umh / subme=8 / psy=1 / psy_rd=1.00:0.00 / mixed_ref=1 / me_range=32 / chroma_me=1 / trellis=2 / 8x8dct=1 / cqm=0 / deadzone=21,11 / fast_pskip=1 / chroma_qp_offset=-2 / threads=18 / lookahead_threads=3 / sliced_threads=0 / nr=0 / decimate=1 / interlaced=0 / bluray_compat=0 / constrained_intra=0 / bframes=3 / b_pyramid=2 / b_adapt=2 / b_bias=0 / direct=3 / weightb=1 / open_gop=0 / weightp=2 / keyint=240 / keyint_min=24 / scenecut=40 / intra_refresh=0 / rc_lookahead=50 / rc=2pass / mbtree=1 / bitrate=8617 / ratetol=1.0 / qcomp=0.60 / qpmin=0 / qpmax=69 / qpstep=4 / cplxblur=20.0 / qblur=0.5 / ip_ratio=1.40 / aq=3:0.80
  26. Default                                  : Yes
  27. Forced                                   : No

  28. Audio
  29. ID                                       : 2
  30. Format                                   : DTS XLL
  31. Format/Info                              : Digital Theater Systems
  32. Commercial name                          : DTS-HD Master Audio
  33. Codec ID                                 : A_DTS
  34. Duration                                 : 2 h 3 min
  35. Bit rate mode                            : Variable
  36. Bit rate                                 : 2 028 kb/s
  37. Channel(s)                               : 6 channels
  38. Channel layout                           : C L R Ls Rs LFE
  39. Sampling rate                            : 48.0 kHz
  40. Frame rate                               : 93.750 FPS (512 SPF)
  41. Bit depth                                : 16 bits
  42. Compression mode                         : Lossless
  43. Stream size                              : 1.75 GiB (19%)
  44. Title                                    : Robert.the.Bruce.2019.1080p.BluRay.x264.DTS-HD.MA.5.1-FGT
  45. Language                                 : English
  46. Default                                  : Yes
  47. Forced                                   : No

  48. Menu
  49. 00:00:00.000                             : en:Chapter 01
  50. 00:18:55.791                             : en:Chapter 02
  51. 00:31:47.833                             : en:Chapter 03
  52. 00:52:01.166                             : en:Chapter 04
  53. 01:13:24.416                             : en:Chapter 05
  54. 01:35:34.041                             : en:Chapter 06
復制代碼









分享到:  QQ好友和群QQ好友和群
收藏收藏
VIP會員免費任意下載本站所有資源!---點擊開通
回復

使用道具 舉報

級別:一線明星 Lv.8

注冊時間
2019-4-24
最后登錄
2020-1-3
聽眾
14
收聽
0
主題
0
藍光幣
247 枚
貢獻
0 點
沙發
發表于 2019-11-8 13:34:45 | 只看該作者
樓主發貼辛苦了,謝謝樓主分享!我覺得中國高清電影網是注冊對了!
VIP會員免費任意下載本站所有資源!---點擊開通
回復

使用道具 舉報

級別:群眾演員 Lv.3

注冊時間
2019-5-18
最后登錄
2019-12-5
聽眾
8
收聽
0
主題
0
藍光幣
4 枚
貢獻
0 點
板凳
發表于 2019-11-13 15:08:30 | 只看該作者
樓主發貼辛苦了,謝謝樓主分享!我覺得中國高清電影網是注冊對了!
VIP會員免費任意下載本站所有資源!---點擊開通
回復

使用道具 舉報

懶得打字嘛,點擊右側快捷回復 【右側內容,后臺自定義】
您需要登錄后才可以回帖 登錄 | 立即注冊

本版積分規則

Archiver|手機版|小黑屋| 中國高清網 |網站地圖

GMT+8, 2020-1-4 09:54 , Processed in 0.182394 second(s), 36 queries .

Powered by HDchina X3.4

Copyright 2017-2019©HDchina.All right reserved

返回頂部 聯系我們
彩票开奖结果