查看: 109|回復: 2
打印 上一主題 下一主題

[恐怖片] 魔鬼出擊 The.Devil.Rides.Out.1968.REMASTERED.1080p.BluRay.X264-AMIABLE 9.85GB

[復制鏈接]

 成長值: 3650

級別:資源管理組

注冊時間
2017-10-20
最后登錄
2020-1-3
聽眾
1
收聽
0
主題
89460
藍光幣
77392 枚
貢獻
13822 點
跳轉到指定樓層
樓主
發表于 2019-11-11 23:18:27 | 只看該作者 |只看大圖 回帖獎勵 |倒序瀏覽 |閱讀模式


譯  名 魔鬼出擊
片  名 The Devil Rides Out
年  代 1968
產  地 英國
類  別 恐怖
語  言 英語
上映日期 1968-07-20
IMDb評分  7.0/10 from 6807 users
IMDb鏈接  http://www.imdb.com/title/tt0062885
豆瓣評分 6.1/10 from 68 users
豆瓣鏈接 https://movie.douban.com/subject/1306191/
片  長 Spain: 96 分鐘
導  演 泰倫斯·費希 Terence Fisher
編  劇 Dennis Wheatley / 理查德·麥瑟森 Richard Matheson
主  演 克里斯托弗·李 Christopher Lee
      查爾斯·格雷 Charles Gray


標  簽 恐怖 | 英國 | 驚悚 | 1960s | 英國電影 | 英國 | Terence_Fisher | Horror

簡  介  

  In the countryside of England, the Duc de Richleau a.k.a Nicholas welcomes his old friend Rex Van Ryn that has flown to meet him and Simon Aron, who is the son of an old friend of them that had passed away but charged them the task of watching the youngster. Nicholas and Rex unexpectedly visit Simon that is receiving twelve mysterious friends. Sooner Nicholas, who is proficient in black magic, learns that the guests are member of a satanic cult and Simon and his friend Tanith Carlisle will be baptized by the powerful leader Mocata to serve the devil. The two friends abduct Simon and Tanith expecting to save their souls but Mocata summons the Angel of Death and the Goat of Mendes to help him in a battle between the good and the forces of evil.

  1. Video
  2. ID                                       : 1
  3. Format                                   : AVC
  4. Format/Info                              : Advanced Video Codec
  5. Format profile                           : [email protected]
  6. Format settings                          : CABAC / 4 Ref Frames
  7. Format settings, CABAC                   : Yes
  8. Format settings, Reference frames        : 4 frames
  9. Codec ID                                 : V_MPEG4/ISO/AVC
  10. Duration                                 : 1 h 35 min
  11. Bit rate                                 : 13.2 Mb/s
  12. Width                                    : 1 792 pixels
  13. Height                                   : 1 080 pixels
  14. Display aspect ratio                     : 5:3
  15. Frame rate mode                          : Constant
  16. Frame rate                               : 23.976 (24000/1001) FPS
  17. Color space                              : YUV
  18. Chroma subsampling                       : 4:2:0
  19. Bit depth                                : 8 bits
  20. Scan type                                : Progressive
  21. Bits/(Pixel*Frame)                       : 0.285
  22. Stream size                              : 8.64 GiB (88%)
  23. Writing library                          : x264 core 158 r2988 7817004
  24. Encoding settings                        : cabac=1 / ref=4 / deblock=1:-3:-3 / analyse=0x3:0x133 / me=umh / subme=10 / psy=1 / psy_rd=1.10:0.00 / mixed_ref=1 / me_range=32 / chroma_me=1 / trellis=2 / 8x8dct=1 / cqm=0 / deadzone=21,11 / fast_pskip=0 / chroma_qp_offset=-2 / threads=34 / lookahead_threads=8 / sliced_threads=0 / nr=0 / decimate=0 / interlaced=0 / bluray_compat=0 / constrained_intra=0 / bframes=10 / b_pyramid=2 / b_adapt=2 / b_bias=0 / direct=3 / weightb=1 / open_gop=0 / weightp=2 / keyint=240 / keyint_min=24 / scenecut=40 / intra_refresh=0 / rc_lookahead=60 / rc=2pass / mbtree=1 / bitrate=13206 / ratetol=1.0 / qcomp=0.60 / qpmin=0 / qpmax=69 / qpstep=4 / cplxblur=20.0 / qblur=0.5 / ip_ratio=1.30 / aq=3:0.65
  25. Default                                  : Yes
  26. Forced                                   : No
  27. Statistics Tags Issue                    : no_variable_data 1970-01-01 00:00:00 / no_variable_data 2010-02-22 21:41:29
  28. FromStats_BitRate                        : 13205314
  29. FromStats_Duration                       : 01:35:43.238000000
  30. FromStats_FrameCount                     : 137700
  31. FromStats_StreamSize                     : 9480157723

  32. Audio
  33. ID                                       : 2
  34. Format                                   : DTS
  35. Format/Info                              : Digital Theater Systems
  36. Codec ID                                 : A_DTS
  37. Duration                                 : 1 h 35 min
  38. Bit rate mode                            : Constant
  39. Bit rate                                 : 1 509 kb/s
  40. Channel(s)                               : 2 channels
  41. Channel layout                           : L R
  42. Sampling rate                            : 48.0 kHz
  43. Frame rate                               : 93.750 FPS (512 SPF)
  44. Bit depth                                : 24 bits
  45. Compression mode                         : Lossy
  46. Stream size                              : 1.01 GiB (10%)
  47. Language                                 : English
  48. Default                                  : Yes
  49. Forced                                   : No
  50. Statistics Tags Issue                    : no_variable_data 1970-01-01 00:00:00 / no_variable_data 2010-02-22 21:41:29
  51. FromStats_BitRate                        : 1508999
  52. FromStats_Duration                       : 01:35:44.022000000
  53. FromStats_FrameCount                     : 538502
  54. FromStats_StreamSize                     : 1083466024

  55. Text #1
  56. ID                                       : 3
  57. Format                                   : UTF-8
  58. Codec ID                                 : S_TEXT/UTF8
  59. Codec ID/Info                            : UTF-8 Plain Text
  60. Language                                 : English
  61. Default                                  : No
  62. Forced                                   : No
  63. Statistics Tags Issue                    : no_variable_data 1970-01-01 00:00:00 / no_variable_data 2010-02-22 21:41:29
  64. FromStats_BitRate                        : 41
  65. FromStats_Duration                       : 01:32:18.033000000
  66. FromStats_FrameCount                     : 1028
  67. FromStats_StreamSize                     : 28948

  68. Text #2
  69. ID                                       : 4
  70. Format                                   : UTF-8
  71. Codec ID                                 : S_TEXT/UTF8
  72. Codec ID/Info                            : UTF-8 Plain Text
  73. Title                                    : SDH
  74. Language                                 : English
  75. Default                                  : No
  76. Forced                                   : No
  77. Statistics Tags Issue                    : no_variable_data 1970-01-01 00:00:00 / no_variable_data 2010-02-22 21:41:29
  78. FromStats_BitRate                        : 43
  79. FromStats_Duration                       : 01:35:02.780000000
  80. FromStats_FrameCount                     : 1117
  81. FromStats_StreamSize                     : 31083

  82. Menu
  83. 00:00:00.000                             : en:Chapter 01
  84. 00:11:57.800                             : en:Chapter 02
  85. 00:17:22.625                             : en:Chapter 03
  86. 00:26:57.032                             : en:Chapter 04
  87. 00:36:19.719                             : en:Chapter 05
  88. 00:45:26.599                             : en:Chapter 06
  89. 00:50:44.291                             : en:Chapter 07
  90. 01:00:58.655                             : en:Chapter 08
  91. 01:07:57.490                             : en:Chapter 09
  92. 01:16:14.945                             : en:Chapter 10
  93. 01:22:56.972                             : en:Chapter 11
  94. 01:32:19.075                             : en:Chapter 12
復制代碼









分享到:  QQ好友和群QQ好友和群
收藏收藏
VIP會員免費任意下載本站所有資源!---點擊開通
回復

使用道具 舉報

級別:一線明星 Lv.8

注冊時間
2019-4-24
最后登錄
2020-1-3
聽眾
14
收聽
0
主題
0
藍光幣
247 枚
貢獻
0 點
沙發
發表于 2019-11-13 13:43:45 | 只看該作者
樓主發貼辛苦了,謝謝樓主分享!我覺得中國高清電影網是注冊對了!
VIP會員免費任意下載本站所有資源!---點擊開通
回復

使用道具 舉報

級別:專業龍套 Lv.4

注冊時間
2019-12-13
最后登錄
2020-1-2
聽眾
1
收聽
0
主題
0
藍光幣
44 枚
貢獻
0 點
板凳
發表于 2019-12-22 18:43:55 | 只看該作者
樓主發貼辛苦了,謝謝樓主分享!我覺得中國高清電影網是注冊對了!
VIP會員免費任意下載本站所有資源!---點擊開通
回復

使用道具 舉報

懶得打字嘛,點擊右側快捷回復 【右側內容,后臺自定義】
您需要登錄后才可以回帖 登錄 | 立即注冊

本版積分規則

Archiver|手機版|小黑屋| 中國高清網 |網站地圖

GMT+8, 2020-1-3 12:37 , Processed in 0.190982 second(s), 36 queries .

Powered by HDchina X3.4

Copyright 2017-2019©HDchina.All right reserved

返回頂部 聯系我們
彩票开奖结果