查看: 54|回復: 1
打印 上一主題 下一主題

[喜劇片] 草地上的午餐 Picnic.on.the.Grass.1959.1080p.BluRay.x264-BiPOLAR 8.76GB

[復制鏈接]

 成長值: 3670

級別:資源管理組

注冊時間
2017-10-20
最后登錄
2020-1-4
聽眾
1
收聽
0
主題
89577
藍光幣
78141 枚
貢獻
13939 點
跳轉到指定樓層
樓主
發表于 2019-11-11 23:45:41 | 只看該作者 |只看大圖 回帖獎勵 |倒序瀏覽 |閱讀模式


譯  名 草地上的午餐 / Lunch on the Grass / Picnic on the Grass
片  名 Le Dejeuner sur l'herbe
年  代 1959
產  地 法國
類  別 喜劇 / 愛情
語  言 法語
上映日期 1959-11-11
IMDb評分  6.9/10 from 821 users
IMDb鏈接  https://www.imdb.com/title/tt0052765
豆瓣評分 7.3/10 from 63 users
豆瓣鏈接 https://movie.douban.com/subject/1963094/
片  長 91 分鐘
導  演 讓·雷諾阿 Jean Renoir
編  劇 讓·雷諾阿 Jean Renoir
主  演 保羅·默里斯 Paul Meurisse
       Charles Blavette
       André Brunot


標  簽 讓·雷諾阿 | 法國 | Jean_Renoir | 法國電影 | 新浪潮 | JeanRenoir | 1950s | 讓雷諾阿

簡  介  

  Etienne Alexis, a candidate for president of the new Europe, is a scientist promoting artificial insemination for social betterment and therapy to eliminate passion. His wealthy household (his family owns chemical corporations that will profit from his ideas) is stiff, intellectual, and sterile. To celebrate his engagement to a German cousin, he hosts an aseptic picnic, where mother nature asserts herself. A shepherd's flute conjures a windstorm that throws Alexis together with the luscious Nénette, a farm lass who wants to have a baby but is unimpressed with men. Written by {[email protected]}
  1. Video
  2. ID                                       : 1
  3. Format                                   : AVC
  4. Format/Info                              : Advanced Video Codec
  5. Format profile                           : [email protected]
  6. Format settings                          : CABAC / 4 Ref Frames
  7. Format settings, CABAC                   : Yes
  8. Format settings, Reference frames        : 4 frames
  9. Codec ID                                 : V_MPEG4/ISO/AVC
  10. Duration                                 : 1 h 33 min
  11. Bit rate                                 : 13.1 Mb/s
  12. Width                                    : 1 792 pixels
  13. Height                                   : 1 080 pixels
  14. Display aspect ratio                     : 5:3
  15. Frame rate mode                          : Constant
  16. Frame rate                               : 24.000 FPS
  17. Color space                              : YUV
  18. Chroma subsampling                       : 4:2:0
  19. Bit depth                                : 8 bits
  20. Scan type                                : Progressive
  21. Bits/(Pixel*Frame)                       : 0.283
  22. Stream size                              : 8.55 GiB (98%)
  23. Writing library                          : x264 core 157 r2969 d4099dd
  24. Encoding settings                        : cabac=1 / ref=4 / deblock=1:-3:-3 / analyse=0x3:0x133 / me=umh / subme=9 / psy=1 / psy_rd=1.00:0.00 / mixed_ref=1 / me_range=16 / chroma_me=1 / trellis=2 / 8x8dct=1 / cqm=0 / deadzone=21,11 / fast_pskip=0 / chroma_qp_offset=-2 / threads=18 / lookahead_threads=1 / sliced_threads=0 / nr=0 / decimate=1 / interlaced=0 / bluray_compat=0 / constrained_intra=0 / bframes=3 / b_pyramid=2 / b_adapt=1 / b_bias=0 / direct=3 / weightb=1 / open_gop=0 / weightp=2 / keyint=240 / keyint_min=24 / scenecut=40 / intra_refresh=0 / rc_lookahead=50 / rc=2pass / mbtree=1 / bitrate=13126 / ratetol=1.0 / qcomp=0.60 / qpmin=0 / qpmax=69 / qpstep=4 / cplxblur=20.0 / qblur=0.5 / ip_ratio=1.40 / aq=1:1.00
  25. Language                                 : English
  26. Default                                  : Yes
  27. Forced                                   : No

  28. Audio
  29. ID                                       : 2
  30. Format                                   : FLAC
  31. Format/Info                              : Free Lossless Audio Codec
  32. Codec ID                                 : A_FLAC
  33. Duration                                 : 1 h 33 min
  34. Bit rate mode                            : Variable
  35. Bit rate                                 : 298 kb/s
  36. Channel(s)                               : 2 channels
  37. Channel layout                           : L R
  38. Sampling rate                            : 48.0 kHz
  39. Frame rate                               : 11.719 FPS (4096 SPF)
  40. Bit depth                                : 16 bits
  41. Compression mode                         : Lossless
  42. Stream size                              : 199 MiB (2%)
  43. Writing library                          : libFLAC 1.2.1 (UTC 2007-09-17)
  44. Language                                 : French
  45. Default                                  : Yes
  46. Forced                                   : No

  47. Text
  48. ID                                       : 3
  49. Format                                   : UTF-8
  50. Codec ID                                 : S_TEXT/UTF8
  51. Codec ID/Info                            : UTF-8 Plain Text
  52. Duration                                 : 1 h 32 min
  53. Bit rate                                 : 61 b/s
  54. Count of elements                        : 966
  55. Stream size                              : 41.6 KiB (0%)
  56. Title                                    : English
  57. Language                                 : English
  58. Default                                  : Yes
  59. Forced                                   : Yes

  60. Menu
  61. 00:00:00.000                             : en:00:00:00.000
  62. 00:08:31.000                             : en:00:08:31.000
  63. 00:17:12.500                             : en:00:17:12.500
  64. 00:27:32.208                             : en:00:27:32.208
  65. 00:35:29.125                             : en:00:35:29.125
  66. 00:44:34.125                             : en:00:44:34.125
  67. 00:53:48.000                             : en:00:53:48.000
  68. 01:03:35.917                             : en:01:03:35.917
  69. 01:12:18.792                             : en:01:12:18.792
  70. 01:22:41.500                             : en:01:22:41.500
  71. 01:33:05.500                             : en:01:33:05.500
復制代碼









分享到:  QQ好友和群QQ好友和群
收藏收藏
VIP會員免費任意下載本站所有資源!---點擊開通
回復

使用道具 舉報

級別:一線明星 Lv.8

注冊時間
2019-4-24
最后登錄
2020-1-3
聽眾
14
收聽
0
主題
0
藍光幣
247 枚
貢獻
0 點
沙發
發表于 2019-11-13 13:36:09 | 只看該作者
樓主發貼辛苦了,謝謝樓主分享!我覺得中國高清電影網是注冊對了!
VIP會員免費任意下載本站所有資源!---點擊開通
回復

使用道具 舉報

懶得打字嘛,點擊右側快捷回復 【右側內容,后臺自定義】
您需要登錄后才可以回帖 登錄 | 立即注冊

本版積分規則

Archiver|手機版|小黑屋| 中國高清網 |網站地圖

GMT+8, 2020-1-5 01:20 , Processed in 0.192382 second(s), 36 queries .

Powered by HDchina X3.4

Copyright 2017-2019©HDchina.All right reserved

返回頂部 聯系我們
彩票开奖结果